找回密码
 -注册-
查看: 9131|回复: 25

网上下载的SACD-ISO,怎么样才能在便携播放器里听呢?

[复制链接]
发表于 2017-3-4 08:52 | 显示全部楼层 |阅读模式
网上下载的SACD-ISO,利用AudioMate软件制作了CUE文件,我稍加修改后,可以正常在电脑上播放(Foobar),但是在随身播放器(L5pro)里只能认出分轨文件,不能播放。该怎么调整呢?

CUE文件内容:

REM AudioMate Ver 10.0R2, AudioMate.blog.163.com
REM ISO File "周华健 - 有弦相聚.iso"
REM File created by SACD Extract, version: 0.37
REM DATE 2016-11-29
FILE "Unknown Album.dff" WAVE
   TRACK 01 AUDIO
       INDEX 00 00:00:00
       INDEX 01 00:02:00
   TRACK 02 AUDIO
       INDEX 00 03:47:41
       INDEX 01 03:50:41
   TRACK 03 AUDIO
       INDEX 00 08:44:49
       INDEX 01 08:47:49
   TRACK 04 AUDIO
      INDEX 00 12:12:70
       INDEX 01 12:15:70
   TRACK 05 AUDIO
       INDEX 00 16:16:21
       INDEX 01 16:19:21
   TRACK 06 AUDIO
       INDEX 00 21:27:38
       INDEX 01 21:30:38
   TRACK 07 AUDIO
       INDEX 00 25:57:27
       INDEX 01 26:00:27
   TRACK 08 AUDIO
       INDEX 00 30:19:23
       INDEX 01 30:22:23
   TRACK 09 AUDIO
       INDEX 00 34:38:46
       INDEX 01 34:41:46
   TRACK 10 AUDIO
       INDEX 00 38:00:12
       INDEX 01 38:03:12
   TRACK 11 AUDIO
       INDEX 00 42:36:74
       INDEX 01 42:39:74

发表于 2017-3-4 18:28 | 显示全部楼层
本帖最后由 ps555 于 2017-3-4 18:31 编辑

用软件直接提取为单首DSF文件,再丢进L5里面播放,如果DFF不行的话,详细百度。http://www.eaymusic.com/read-htm-tid-33724-1-1.html
回复

使用道具 举报

 楼主| 发表于 2017-3-4 19:37 | 显示全部楼层
ps555 发表于 2017-3-4 18:28
用软件直接提取为单首DSF文件,再丢进L5里面播放,如果DFF不行的话,详细百度。http://www.eaymusic.com/re ...

有没有办法,让单个的dsf音乐按专辑顺序播放呢?
回复

使用道具 举报

发表于 2017-3-4 22:11 | 显示全部楼层
pp46318 发表于 2017-3-4 19:37
有没有办法,让单个的dsf音乐按专辑顺序播放呢?

提取出来的DSF放在同一个文件夹内,自然就是按顺序播放。你也可以自定义播放。
回复

使用道具 举报

 楼主| 发表于 2017-3-5 07:46 | 显示全部楼层
ps555 发表于 2017-3-4 22:11
提取出来的DSF放在同一个文件夹内,自然就是按顺序播放。你也可以自定义播放。

我给每个歌曲都加了数字前缀,可还不是按照数字顺序播放
回复

使用道具 举报

发表于 2017-3-6 10:36 | 显示全部楼层
pp46318 发表于 2017-3-5 07:46
我给每个歌曲都加了数字前缀,可还不是按照数字顺序播放

前缀怎么加的?是1,2,3还是01,02,03?
回复

使用道具 举报

 楼主| 发表于 2017-3-6 11:43 | 显示全部楼层
死在键盘上 发表于 2017-3-6 10:36
前缀怎么加的?是1,2,3还是01,02,03?

01、02、03...
回复

使用道具 举报

发表于 2017-3-8 16:53 | 显示全部楼层
软件提取,然后放到播放器就行了
回复

使用道具 举报

 楼主| 发表于 2017-3-8 17:27 | 显示全部楼层
搞定了。
回复

使用道具 举报

发表于 2017-3-9 22:03 | 显示全部楼层
我以前是转DFF,后来嫌麻烦,直接用FOOBAR2000转成24B192K的FLAC,用D100反而觉得听感更好一点。
回复

使用道具 举报

 楼主| 发表于 2017-3-10 08:39 | 显示全部楼层
eudemon7 发表于 2017-3-9 22:03
我以前是转DFF,后来嫌麻烦,直接用FOOBAR2000转成24B192K的FLAC,用D100反而觉得听感更好一点。

24bit的flac体积比24bit的wav大吗?
回复

使用道具 举报

发表于 2017-3-10 10:50 | 显示全部楼层
pp46318 发表于 2017-3-10 08:39
24bit的flac体积比24bit的wav大吗?

理论上更小
回复

使用道具 举报

 楼主| 发表于 2017-3-10 11:03 | 显示全部楼层

还有个问题,DSD格式的音乐声音要比一般的wav,flac要小,有办法解决吗?
回复

使用道具 举报

发表于 2017-3-10 22:37 | 显示全部楼层
pp46318 发表于 2017-3-10 11:03
还有个问题,DSD格式的音乐声音要比一般的wav,flac要小,有办法解决吗?

我以前是用scarletbook转换,有的ISO会出现音量小的问题,但多数不会,我想是和原盘有关。
回复

使用道具 举报

 楼主| 发表于 2017-3-11 08:30 | 显示全部楼层
eudemon7 发表于 2017-3-10 22:37
我以前是用scarletbook转换,有的ISO会出现音量小的问题,但多数不会,我想是和原盘有关。

为什么我碰到的ISO转成dsf后,音量都很小呢
回复

使用道具 举报

发表于 2017-4-10 20:21 | 显示全部楼层
路过,留个记号。
回复

使用道具 举报

发表于 2017-5-19 17:07 | 显示全部楼层
eudemon7 发表于 2017-3-9 22:03
我以前是转DFF,后来嫌麻烦,直接用FOOBAR2000转成24B192K的FLAC,用D100反而觉得听感更好一点。


如何把dsd转成24/192的 我转出来都是16/44的
回复

使用道具 举报

发表于 2017-5-20 08:34 | 显示全部楼层
eudemon7 发表于 2017-3-9 22:03
我以前是转DFF,后来嫌麻烦,直接用FOOBAR2000转成24B192K的FLAC,用D100反而觉得听感更好一点。


如何把dsd转成24/192的 我转出来都是16/44的
回复

使用道具 举报

发表于 2017-5-25 22:09 | 显示全部楼层
坤se坤 发表于 2017-5-20 08:34
如何把dsd转成24/192的 我转出来都是16/44的

其实我也不知道,我用的FOOBAR200 V1.3.14中文版,从360软件库安装升级的,直接打开ISO,设置转为FLAC,出来就是24B192K的。
这个比以前用scarletbook方便太多了,音质并无明显变化。
回复

使用道具 举报

发表于 2017-5-31 12:18 | 显示全部楼层
plenue  p1.pm.PM2.ps.p2  播放器直接可以播放
回复

使用道具 举报

您需要登录后才可以回帖 登录 | -注册-

本版积分规则

Archiver|手机版|《中华人民共和国增值电信业务经营许可证》粤B2-20120704|耳机大家坛-耳机网 ( 粤icp备09046054号-6 )

粤公网安备 44030602000598号

GMT+8, 2019-12-10 21:54

Powered by Discuz! X3.2

© 2001-2013 Comsenz Inc.

快速回复 返回顶部 返回列表