找回密码
 注册
楼主: baozi268369

C83音乐资源推荐楼【2月23日,更新CDx4...于是C83的碟子就推到这里,本帖完结】

[复制链接]
发表于 2013-1-26 19:46 | 显示全部楼层
引用第119楼baozi268369于2013-01-26 12:20发表的 :
啊,终于有好人把bassy抓出来了
然后现在还在等这几张,等到这楼基本就可以收工了2333333333
狐の工作室、彩音 .xi-on、Foxtail-Grass Studio、Melodic Taste的...
顺带一提前三张梦幻有档但不能分流,权限够的可以去拖了听听,强烈推荐彩音 .xi-on那张,有几首曲子真是毒尿了
春节后我还要买一批,要是Melodic Taste到时候还没有我就买了,就算现在买估计也要等春节后才发了
回复

使用道具 举报

发表于 2013-1-26 20:03 | 显示全部楼层
这极强的既视感是什么?

C81没听完算什么,包子sama的C80精选我还没听完,C81 根本还没动····
C82又来了
回复

使用道具 举报

发表于 2013-1-26 20:38 | 显示全部楼层
谢谢包纸姐姐了  [s:10]
回复

使用道具 举报

发表于 2013-1-28 11:44 | 显示全部楼层
这个帖子怎么能让它沉下去 [s:19] [s:19] [s:19]
回复

使用道具 举报

发表于 2013-1-28 17:29 | 显示全部楼层
谢谢包子姐 每次的推荐 很有爱的说!
回复

使用道具 举报

发表于 2013-1-28 18:39 | 显示全部楼层
来顶顶
回复

使用道具 举报

发表于 2013-1-28 19:07 | 显示全部楼层
感谢分享
回复

使用道具 举报

 楼主| 发表于 2013-1-30 21:29 | 显示全部楼层
回来发现狐の工作室有好人放流,马上来一发百度分享233333333333
回复

使用道具 举报

发表于 2013-1-30 23:26 | 显示全部楼层
狐工的碟子终于出了啊 感谢好包子!!!
回复

使用道具 举报

发表于 2013-1-30 23:39 | 显示全部楼层
不得不说,虽然旋律依旧好听得不得了,但是这烂到爆表的录音质量…果然是Bassy啊
回复

使用道具 举报

发表于 2013-1-31 10:21 | 显示全部楼层
狐工的终于出来了大感谢!_(:3」∠)_
其实很期待<水の都のオートマタ>这张...试听感觉很不错,但melon很早就品切れ了QAQ
----
狐工这次的录音风格很奇特啊233
感觉像是生演奏一般(?)
而且第二首居然有点DDBY的感觉!XDD
回复

使用道具 举报

发表于 2013-2-2 18:05 | 显示全部楼层
[strike]我看见有狐工出来了……就……[/strike]


怎能给这帖子沉下来呢……
回复

使用道具 举报

发表于 2013-2-2 18:13 | 显示全部楼层
包纸业界良心!
回复

使用道具 举报

发表于 2013-2-2 20:03 | 显示全部楼层
无损档等了好久 包子太好了
回复

使用道具 举报

发表于 2013-2-2 22:22 | 显示全部楼层
包纸姐姐业界良心无雾!
回复

使用道具 举报

发表于 2013-2-4 10:58 | 显示全部楼层
東方交戦劇 点下载肿么没有反应?度娘盘傲娇了么?求破~
回复

使用道具 举报

发表于 2013-2-4 13:01 | 显示全部楼层
引用第136楼神么都浮云于2013-02-04 10:58发表的 :
東方交戦劇 点下载肿么没有反应?度娘盘傲娇了么?求破~
估计是度娘傲娇了,多攻略几遍即可
回复

使用道具 举报

发表于 2013-2-4 13:35 | 显示全部楼层
引用第137楼圣诞老人马甲于2013-02-04 13:01发表的 :

估计是度娘傲娇了,多攻略几遍即可
表示试过转存,断网重试等方法都木有效果,攻略失败orz.........
回复

使用道具 举报

发表于 2013-2-5 10:32 | 显示全部楼层
啊啊2月2日的无损听不了55555555,千千静听都导不出来wav....大家有同样的问题么.....似乎是cue文档的问题?
回复

使用道具 举报

发表于 2013-2-5 11:01 | 显示全部楼层
引用第139楼conan0728于2013-02-05 10:32发表的 :
啊啊2月2日的无损听不了55555555,千千静听都导不出来wav....大家有同样的问题么.....似乎是cue文档的问题?

[strike]CUE档的问题,不过还好带了log文件,对照着log里的时间手动修复就可以了[/strike]
放上我修复的吧......

REM GENRE Soundtrack
REM DATE 2012
REM COMMENT ExactAudioCopy v1.0b3
PERFORMER "Tutti Sound"
TITLE "東方映画音楽選 - TOHO FILM MUSIC SELECTION - ~ 妖楽記"
FILE "東方映画音楽選 - TOHO FILM MUSIC SELECTION - ~ 妖楽記.flac" WAVE
TRACK 01 AUDIO
  TITLE "妖楽記 -桜咲く-"
  PERFORMER "ネオ; Toho Grand Orchestra"
  INDEX 01 00:00:00
TRACK 02 AUDIO
  TITLE "天空の花の都 - Phantom Ensemble -"
  PERFORMER "ネオ; Toho Grand Orchestra"
  INDEX 00 02:42:33
  INDEX 01 02:44:32
TRACK 03 AUDIO
  TITLE "Border of Life 『death side』"
  PERFORMER "ネオ; Toho Grand Orchestra"
  INDEX 00 07:06:06
  INDEX 01 07:08:05
TRACK 04 AUDIO
  TITLE "百妖夜行"
  PERFORMER "ネオ; Toho Grand Orchestra"
  INDEX 00 09:52:63
  INDEX 01 09:53:62
TRACK 05 AUDIO
  TITLE "紫シンフォニー 2012"
  PERFORMER "ネオ; Toho Grand Orchestra"
  INDEX 00 13:44:14
  INDEX 01 13:46:13
TRACK 06 AUDIO
  TITLE "Shall We Dance?"
  PERFORMER "ネオ; Toho Grand Orchestra"
  INDEX 00 17:31:63
  INDEX 01 17:33:62
TRACK 07 AUDIO
  TITLE "紫シンフォニー"
  PERFORMER "ネオ; Toho Grand Orchestra"
  INDEX 00 21:06:72
  INDEX 01 21:08:70
回复

使用道具 举报

您需要登录后才可以回帖 登录 | 注册

本版积分规则

Archiver|手机版|《中华人民共和国增值电信业务经营许可证》粤B2-20120704|耳机大家坛-耳机网 ( 粤icp备09046054号-6 )

粤公网安备 44030602000598号

GMT+8, 2019-10-22 02:17

Powered by Discuz! X3.2

© 2001-2013 Comsenz Inc.

快速回复 返回顶部 返回列表