找回密码
 注册
楼主: kenny365

【原创】 邓丽君15周年 1:1黄金母盘直刻 终极音效 限量版-WAV分轨(正版亲抓)

[复制链接]
发表于 2012-2-23 11:45 | 显示全部楼层
下载中 谢谢分享
回复

使用道具 举报

发表于 2012-2-24 14:56 | 显示全部楼层
下载中,非常感谢
回复

使用道具 举报

发表于 2012-2-29 21:23 | 显示全部楼层
呵呵,太刁了,我喜欢。说实在的,都说是那个年代的天皇巨星,真想听听是什么样子
回复

使用道具 举报

发表于 2012-3-1 14:08 | 显示全部楼层
谢谢分享 [s:52]
回复

使用道具 举报

发表于 2012-3-3 22:45 | 显示全部楼层
PERFORMER "邓丽君"
TITLE "15周年 母盘直刻"
FILE "Track01.wav" WAVE
TRACK 01 AUDIO
  TITLE "01 漫步人生路蜂 (曲:中岛美雪 词:郑国江)"
  INDEX 01 00:00:00
FILE "Track02.wav" WAVE
TRACK 02 AUDIO
  TITLE "02 何日君再来 (曲:沈华 词:刘雪庵)"
  INDEX 00 00:00:00
  INDEX 01 00:00:10
FILE "Track03.wav" WAVE
TRACK 03 AUDIO
  TITLE "03 甜蜜蜜 (曲:佚名 词:莊奴)"
  INDEX 00 00:00:00
  INDEX 01 00:00:10
FILE "Track04.wav" WAVE
TRACK 04 AUDIO
  TITLE "04 在水一方 (曲:林家庆 词:瓊瑶)"
  INDEX 00 00:00:00
  INDEX 01 00:00:10
FILE "Track05.wav" WAVE
TRACK 05 AUDIO
  TITLE "05 忘记他 (曲&词:黄霑)"
  INDEX 00 00:00:00
  INDEX 01 00:00:10
FILE "Track06.wav" WAVE
TRACK 06 AUDIO
  TITLE "06 你可知道我爱谁 (曲:古月 词:爾英)"
  INDEX 00 00:00:00
  INDEX 01 00:00:10
FILE "Track07.wav" WAVE
TRACK 07 AUDIO
  TITLE "07 小城故事 电影[小城故事] (曲:汤尼 词:莊奴)"
  INDEX 00 00:00:00
  INDEX 01 00:00:10
FILE "Track08.wav" WAVE
TRACK 08 AUDIO
  TITLE "08 我和你 (曲:远藤实 词:林煌坤)"
  INDEX 00 00:00:00
  INDEX 01 00:00:10
FILE "Track09.wav" WAVE
TRACK 09 AUDIO
  TITLE "09 再见!我的爱人 (曲:平尾昌晃 词:文采)"
  INDEX 00 00:00:00
  INDEX 01 00:00:10
FILE "Track10.wav" WAVE
TRACK 10 AUDIO
  TITLE "10 东山飘雨西山晴 (曲:怀玉 词:向雪怀)"
  INDEX 00 00:00:00
  INDEX 01 00:00:10
FILE "Track11.wav" WAVE
TRACK 11 AUDIO
  TITLE "11 你怎么说 (曲:司马亮 词:上官月)"
  INDEX 00 00:00:00
  INDEX 01 00:00:10
FILE "Track12.wav" WAVE
TRACK 12 AUDIO
  TITLE "12 海 韵 (曲:古月 词:莊奴)"
  INDEX 00 00:00:00
  INDEX 01 00:00:10
FILE "Track13.wav" WAVE
TRACK 13 AUDIO
  TITLE "13 原乡情浓 电影[原乡人] (曲:汤尼 词:莊奴)"
  INDEX 00 00:00:00
  INDEX 01 00:00:10
FILE "Track14.wav" WAVE
TRACK 14 AUDIO
  TITLE "14 水上人 电影[马骝过海] (曲:左宏元 词:莊奴)"
  INDEX 00 00:00:00
  INDEX 01 00:00:10
FILE "Track15.wav" WAVE
TRACK 15 AUDIO
  TITLE "15 月亮代表我的心 (曲:汤尼 词:佚名) "
  INDEX 00 00:00:00
  INDEX 01 00:00:10
回复

使用道具 举报

发表于 2012-3-4 13:30 | 显示全部楼层
谢谢,我下载来听听,我有这张的引进版^_^
回复

使用道具 举报

发表于 2012-3-5 19:13 | 显示全部楼层
非常谢谢kenny365兄弟!
回复

使用道具 举报

发表于 2012-3-6 16:16 | 显示全部楼层
太强了,还有证书,这下耳朵有福了
回复

使用道具 举报

发表于 2012-3-11 09:12 | 显示全部楼层
正下载 但为何只有450m多 15首歌呢 多谢lz
回复

使用道具 举报

发表于 2012-3-11 14:44 | 显示全部楼层
已下载 感谢分享~
回复

使用道具 举报

发表于 2012-3-15 23:23 | 显示全部楼层
谢谢楼主分享~~
回复

使用道具 举报

发表于 2012-3-18 15:52 | 显示全部楼层
谢谢分享
回复

使用道具 举报

发表于 2012-3-20 10:56 | 显示全部楼层
经典的歌曲!永远的邓丽君!
回复

使用道具 举报

发表于 2012-3-20 20:26 | 显示全部楼层
这个必须得谢谢!!!
回复

使用道具 举报

发表于 2012-3-20 23:39 | 显示全部楼层
感谢LZ分享。
回复

使用道具 举报

发表于 2012-4-19 21:41 | 显示全部楼层
这个必须谢谢!
回复

使用道具 举报

发表于 2012-4-21 13:29 | 显示全部楼层
看见log文件中的“读取模式:暴发”,无爱了。还有“组合读写偏移校正:0”,这个值可以根据光驱的型号查一下。
回复

使用道具 举报

发表于 2012-4-22 14:16 | 显示全部楼层
正在下载,谢谢
回复

使用道具 举报

发表于 2012-4-27 11:19 | 显示全部楼层
谢谢!
回复

使用道具 举报

发表于 2012-4-27 15:06 | 显示全部楼层
这盘不能这么爆抓 - -
回复

使用道具 举报

您需要登录后才可以回帖 登录 | 注册

本版积分规则

Archiver|手机版|《中华人民共和国增值电信业务经营许可证》粤B2-20120704|耳机大家坛-耳机网 ( 粤icp备09046054号-6 )

粤公网安备 44030602000598号

GMT+8, 2017-9-27 05:53

Powered by Discuz! X3.2

© 2001-2013 Comsenz Inc.

快速回复 返回顶部 返回列表